MAISON IKKOKU 1080P CUARTA TEMPORADA TERMINADA PORFIN




SINOPSIS


Una comedia romántica costumbrista que narra la relación entre un estudiante universitario, Yusaku Godai, y su casera Kyoko Otonashi, viuda a temprana edad. Los inquilinos de la Maison Ikkoku son a cada cual más peculiar, creando una atmósfera hilarante alrededor de la tragicómica historia de Godai.


INFORMACION



MAISON IKKOKU
め ぞ ん 一刻
AÑO: 1989
PAÍS: JAPON
DIRECTORA: KAZAO YAMAZAKI
GENERO: ROMANCE / DRAMA / COMEDIA
DURACIÓN TOTAL: 00:25:40
TAMAÑO: 400 Y 500 MB
RESOLUCIÓN: 1080P
IDIOMA: AUDIOS: CASTELLANO AC3 / JAPONES FLAC
SUBTÍTULOS: Español
FORMATO: MATROSKA / MKV
UPLOADER: SLAYERS21
CONTRASEÑA:  ClubAnimeHD


IMAGENES







DESCARGAS


HOLA PORFIN PUDE TERMINAR  ESTARE SUBIENDO LA PRIMERA Y SEGUNDA TEMPORADA.. SOBRE EL CAP 86 Y 88 AUN NO ENCUENTRO SOLUCION  NO SE QUE PUEDE PASA CON ESTOS CAP. PERO APENAS LO ARREGLE LO RESUBIRE TAMBIEN SUBIRE TODA LA SERIE EN UNA VERSION PESADA DE 1.5GB X EPISODIO GRACIAS POR VISITAR EL BLOG ..  


Author Image

AUTOR ClubAnime HD
BUENO ANTE TODO GRACIAS POR VISITAR EL BLOG ESPERO QUE MI VERSION SEA DE SU AGRADO TODOS LOS POST SE COMPLETARAN LENTO PERO SEGURO.. QUE SI A UN 100%.. SOLO SUBIRE EN EXCELENTE CALIDAD Y CON EL AUDIO FLAC JAPONES SI LOS ENCUENTRO XDD.. si alguien quiere ayudar con el blog que se comunique urgentemente

23 comentarios:

  1. Hola amigo, cuando pondras los links de descarga , muchas gracias :)

    ResponderEliminar
    Respuestas
    1. ya queria terminar todo pero mi vista no a estado bien este ultimo mes siempre que llega el lunes me jode mucho ya que el domingo trabajo como loco ..
      pero este lunes o martes si lo termino a mas tardar

      Eliminar
  2. Sos un grande che !! espero puedas completar la serie la estoy guardando para coleccion, si necesitas ayuda con los links pegame un llamado. Gracias !!

    ResponderEliminar
  3. el capitulo 86 en el min 7:22 se corta y vuelve a empezar, un saludo!!! :)

    ResponderEliminar
    Respuestas
    1. gracias por avisar lo resubire hoy y asi continuare con los capitulo restantes y empezare con la primera temporada

      Eliminar
  4. al 88 también le pasa algo parecido, tranqui es una pedazo de serie y es grandioso que tu te estes tomando tu tiempo en subirla, muchas gracias!! :)

    ResponderEliminar
  5. buenas!!! subirás los demás capitulos??? un saludoo!!!

    ResponderEliminar
  6. Lo que mas queria, es que alguien suba esta serie y en 1080p ya es mucho pedir!!!
    que alegria, ojala que la completes, con las peliculas y ovas.
    es la serie que quiero q vean mis hijos!


    te agradezco de todo corazon

    muchas gracias!

    ResponderEliminar
  7. grandes noticias sin lugar a dudas :D

    ResponderEliminar
  8. Este comentario ha sido eliminado por el autor.

    ResponderEliminar
  9. por cierto, subirás la ova y la pelicula? :)

    ResponderEliminar
  10. buenas!!, el 94 falla, no deja descomprimir, dice que no hay nada dentro, podrías resubirlo??? un saludo y gracias!!

    ResponderEliminar
  11. a mi me pasa lo mismo con el 94. le podes resubir?

    ResponderEliminar
  12. Ahi lo vi, fijate que esten todos.

    Gracias!!! Eres el mejor, mi sueño se esta haciendo realidad y el de muchos!!!

    ResponderEliminar
  13. Muchísimas gracias por compartir esta serie :) Se te agredece!! Por favor si puedes solucionar lo de los capítulos 86 y 88 ya sería increíble :D

    ResponderEliminar
  14. Te amo muchas gracias!! =) Una pena lo del capítulo 86 y 88

    ResponderEliminar
  15. Hola, yo tengo los capitulos 86 y 88 con las siguientes especificaciones. Es de menor calidad pero puede ayudarnos hasta que ClubAnimeHD puede arreglar los suyos. Diganme si les interesa mandadonme un email a jarr_at_innercoder_com y los subire a mega. Saludos.

    Stream #0:0: Video: mpeg4 (XVID / 0x44495658), yuv420p, 640x480, 23.98 tbr, 23.98 tbn, 23.98 tbc
    Stream #0:1(Castellano): Audio: mp3, 44100 Hz, mono, s16p, 80 kb/s
    Stream #0:2(Japones): Audio: mp3, 44100 Hz, mono, s16p, 80 kb/s
    Stream #0:3(Castellano): Subtitle: text

    ResponderEliminar
    Respuestas
    1. Vale, te dejo mi correo para que me pases los links 90000david@gmail.com
      Espero que algún dia solucionen esto porque me encantaría tenerla completa en hd ;D

      Eliminar
  16. gracias por el gran trabajo quiero saver si tambien bas a ser Urusei Yatsura que tambien es una gran serie espero que si lo hagas bay

    ResponderEliminar
  17. amigo tienes el link de la tercera temporada!!!!!!

    ResponderEliminar
  18. ¡¡Gracias por la serie completa!! Vaya arduo trabajo... sin duda es admirable.
    Saludos

    ResponderEliminar